Subcategories

Tech Explorations Raspberry Pi: Full Stack (2018)

Posted By: ParRus
Tech Explorations Raspberry Pi: Full Stack (2018)

Tech Explorations Raspberry Pi: Full Stack (2018)
WEBRip | English | MP4 + Project Files | 1280 x 720 | AVC ~533 kbps | 30 fps
AAC | 60.7 Kbps | 44.1 KHz | 2 channels | ~8 hours | 2.73 GB
Genre: Video Tutorial

The objective of this course is to take you to a whirlwind tour of the Raspberry Pi, and introduce you to everything that is great about it.
Structured as a project, you will become familiar with the various components that make up the web development stack: the operating system, the hardware (including the GPIOs), the application server, web server, database server, and the Python programming language.
You will also become familiar with Cloud services that you will integrate into your Raspberry Pi-powered web application.
You application will take sensor data and make them available to the user via a web interface that is constructed based on jQuery and HTML5.
You will need a Raspberry Pi, a DHT22 sensor, a button, an LED, a few resistors and a breadboard. If you wish to setup wireless networking on your Raspberry Pi, you will also need a USB Wifi dongle.
To make the most from this course, you should be familiar with basic programming and be comfortable with the command line.

also You can watch my other last: Programming-posts

General
Complete name : 037 Define a date-time range in the URL.mp4
Format : MPEG-4
Format profile : Base Media
Codec ID : isom (isom/avc1/mp42)
File size : 46.2 MiB
Duration : 10 min
Overall bit rate mode : Variable
Overall bit rate : 596 kb/s
Encoded date : UTC 2015-06-26 11:23:56
Tagged date : UTC 2015-06-26 11:23:56

Video
ID : 1
Format : AVC
Format/Info : Advanced Video Codec
Format profile : [email protected]
Format settings, CABAC : No
Format settings, ReFrames : 3 frames
Codec ID : avc1
Codec ID/Info : Advanced Video Coding
Duration : 10 min
Bit rate : 533 kb/s
Maximum bit rate : 7 185 kb/s
Width : 1 280 pixels
Height : 720 pixels
Display aspect ratio : 16:9
Frame rate mode : Constant
Frame rate : 30.000 FPS
Color space : YUV
Chroma subsampling : 4:2:0
Bit depth : 8 bits
Scan type : Progressive
Bits/(Pixel*Frame) : 0.019
Stream size : 41.3 MiB (89%)
Writing library : Zencoder Video Encoding System
Encoded date : UTC 2015-06-26 11:21:09
Tagged date : UTC 2015-06-26 11:23:56

Audio
ID : 2
Format : AAC
Format/Info : Advanced Audio Codec
Format profile : LC
Codec ID : 40
Duration : 10 min
Bit rate mode : Variable
Bit rate : 60.7 kb/s
Maximum bit rate : 112 kb/s
Channel(s) : 2 channels
Channel positions : Front: L R
Sampling rate : 44.1 kHz
Frame rate : 43.066 FPS (1024 spf)
Compression mode : Lossy
Stream size : 4.70 MiB (10%)
Encoded date : UTC 2015-06-26 11:21:09
Tagged date : UTC 2015-06-26 11:23:56
Screenshots

Tech Explorations Raspberry Pi: Full Stack (2018)

Tech Explorations Raspberry Pi: Full Stack (2018)

Tech Explorations Raspberry Pi: Full Stack (2018)

Tech Explorations Raspberry Pi: Full Stack (2018)

Tech Explorations Raspberry Pi: Full Stack (2018)

Tech Explorations Raspberry Pi: Full Stack (2018)

Exclusive eLearning Videos ParRus-blogadd to bookmarks

Tech Explorations Raspberry Pi: Full Stack (2018)
SitemapMajin Bone English Subbed | Churchill | A Cidade dos Amaldiçoados